Парад Победы, посвященный 71-ой годовщине Победы в ВОВ 1941-1945г., Грозный (2016.05.09) SATRip скачать торрент

Reply to topic

DL-List and Torrent activity [Update пиров]
Size:  336 MB   |    Registered:  5 years 4 months   |    Completed:  1 time

Seeder not seen: 5 years 4 months

 
 
 
 
 
Author Message

BiOS ®

Longevity: 7 years 5 months

Posts: 1166

Location: Raccoon City


Post 10-May-2016 06:53

[Quote]

Парад Победы, посвященный 71-ой годовщине Победы в ВОВ 1941-1945г., Грозный - Телекомпания: Россия24
Жанр: Документальный, военный парад
Описание:
Военный парад, посвященный 71-й годовщине Победы в Великой Отечественной войне.
Каждый год 9 мая во многих странах мира отмечают День Победы над немецко-фашистскими захватчиками. Но нигде этот праздник не празднуют с таким размахом, как в России. В 2016 году отмечается 71 год со Дня Победы.
Релиз от: VaGON4eG
Продолжительность: 00:21:20
Качество видео: SATRip
Субтитры: Отсутствуют
Видео: xvid, 720x400 (16:9), 25.000 fps, 2 000 Kbps (0.278 bit/pixel)
Аудио: MP3, 48.0 KHz, 2 ch, 192 Kbps, CBR

Mediainfo:

Код:
Формат                                   : AVI
Формат/Информация                        : Audio Video Interleave
Размер файла                             : 336 Мбайт
Продолжительность                        : 21 м.
Общий поток                              : 2205 Кбит/сек
Программа кодирования                    : Lavf54.63.104
Видео
Идентификатор                            : 0
Формат                                   : xvid
Идентификатор кодека                     : xvid
Продолжительность                        : 21 м.
Битрейт                                  : 2000 Кбит/сек
Ширина                                   : 720 пикселей
Высота                                   : 400 пикселей
Соотношение сторон                       : 16:9
Частота кадров                           : 25,000 кадров/сек
Бит/(Пиксели*Кадры)                      : 0.278
Размер потока                            : 305 Мбайт (91%)
Аудио
Идентификатор                            : 1
Формат                                   : MPEG Audio
Версия формата                           : Version 1
Профиль формата                          : Layer 3
Режим                                    : Joint stereo
Расширение режима                        : MS Stereo
Идентификатор кодека                     : 55
Идентификатор кодека/Подсказка           : MP3
Продолжительность                        : 21 м.
Вид битрейта                             : Постоянный
Битрейт                                  : 192 Кбит/сек
Каналы                                   : 2 канала
Частота                                  : 48,0 КГц
Метод сжатия                             : С потерями
Размер потока                            : 29,3 Мбайт (9%)
Выравнивание                             : Соединение по промежуткам
Продолжительность промежутка             : 24  мс. (0,60 видеокадр)
Библиотека кодирования                   : LAME3.99.5
-Скриншоты:


Смотреть онлайн


[trackeroc.ru].12599.torrent  Магнет ссылка
Torrent: Registered   [ 2016-05-10 06:53 ]

Скачать торрент

14 KB

Status: checked
Completed: 151 times
Size: 336 MB
 

Similar torrent
Forum Topic Author Size
Российские Праздничный салют, посвященный Дню Победы. Москва (2016.05.09) HDTV [H.264/1080i-LQ] BiOS 522 MB
Российские Парад Победы, посвященный 71-ой годовщине Победы в ВОВ 1941-1945г., Москва (2016.05.09) HDTV [H.264/1080i] BiOS 4.19 GB
Российские Парад Победы, посвященный 71-ой годовщине Победы в ВОВ 1941-1945г., Калининград (2016.05.09) WEBRip BiOS 811 MB
Российские Парад Победы, посвященный 71-ой годовщине Победы в ВОВ 1941-1945г., Донецк (2016.05.09) WEBRip BiOS 820 MB

_________________
[Profile] [PM]
Display posts from previous:    
Reply to topic

The time now is: Today 04:58

All times are GMT + 4 Hours



You cannot post new topics in this forum
You cannot reply to topics in this forum
You cannot edit your posts in this forum
You cannot delete your posts in this forum
You cannot vote in polls in this forum
You cannot attach files in this forum
You can download files in this forum