Безумный мир / Dystopia / Mad World (2018) WEB-DLRip [MVO] [AD] скачать торрент

Reply to topic

DL-List and Torrent activity [Update пиров]
Size:  1.32 GB   |    Registered:  2 years 11 months   |    Completed:  2 times

Seeder not seen: 1 year

 
 
 
 
 
Author Message

BiOS ®

Longevity: 7 years 5 months

Posts: 1166

Location: Raccoon City


Post 24-Oct-2018 15:01

[Quote]

Безумный мир / Dystopia / Mad World - Производство: Великобритания / Runaway Features
Жанр: Фантастика, боевик
Режиссер: Пол Тантер
Актеры: Майкл Копон, Саймон Филлипс, Шина Колетт, Лео Гудман, Рич Пол, Шале Лизетт Брэннан, Дэйв Хоббс, Шери Ларис, Роберт Шеперд, Питер Вудворд
Описание:
В ближайшем будущем человечество вымирает от вируса бесплодия, распространившегося вместе с метрическими чипами корпорации Био-корп, захватившей власть в США и назначившей на пост президента Майкла Мэдсена. Группа ученых, пытаясь сбежать из тоталитарного режима, случайно вместо телепортации изобретает машину времени, которая возможно является ключом к спасению всего мира.
Рейтинг MPAA: R (лицам до 17 лет обязательно присутствие взрослого)
Дата мировой премьеры: 2 января 2018
Продолжительность: 01:25:33
Качество видео: WEB-DLRip
Перевод: Многоголосый закадровый, любительский (КОЛОБОК)
Субтитры: Отсутствуют
Реклама: Присутствуют вставки текстовой рекламы
Видео: XviD, 720x400, ~1815 Kbps
Аудио: AC-3, 2 ch, 384 Kbps

MediaInfo:

Общее
Формат : AVI
Формат/Информация : Audio Video Interleave
Профиль формата : OpenDML
Размер файла : 1,32 Гбайт
Продолжительность : 1 ч. 25 м.
Общий поток : 2212 Кбит/сек
Видео
Идентификатор : 0
Формат : MPEG-4 Visual
Профиль формата : Advanced [email protected]
Настройки формата : BVOP2 / Custom Matrix
Параметр BVOP формата : 2
Параметр QPel формата : Нет
Параметр GMC формата : Без точки перехода
Параметр матрицы формата : Выборочная
Идентификатор кодека : XVID
Идентификатор кодека/Подсказка : XviD
Продолжительность : 1 ч. 25 м.
Битрейт : 1815 Кбит/сек
Ширина : 720 пикселей
Высота : 400 пикселей
Соотношение сторон : 16:9
Частота кадров : 23,976 (24000/1001) кадра/сек
Цветовое пространство : YUV
Субдискретизация насыщенности : 4:2:0
Битовая глубина : 8 бит
Тип развёртки : Прогрессивная
Метод сжатия : С потерями
Бит/(Пиксели*Кадры) : 0.263
Размер потока : 1,08 Гбайт (82%)
Библиотека кодирования : XviD 1.2.1 (UTC 2008-12-04)
Аудио
Идентификатор : 1
Формат : AC-3
Формат/Информация : Audio Coding 3
Идентификатор кодека : 2000
Продолжительность : 1 ч. 25 м.
Вид битрейта : Постоянный
Битрейт : 384 Кбит/сек
Каналы : 2 канала
Расположение каналов : Front: L R
Частота : 48,0 КГц
Частота кадров : 31,250 кадров/сек (1536 SPF)
Битовая глубина : 16 бит
Метод сжатия : С потерями
Размер потока : 235 Мбайт (17%)
Выравнивание : Соединение по промежуткам
Продолжительность промежутка : 32 мс. (0,77 видеокадр)
ServiceKind/String : Complete Main
-Скриншоты:


Смотреть онлайн


[trackeroc.ru].16212.torrent  Магнет ссылка
Torrent: Registered   [ 2018-10-24 15:01 ]

Скачать торрент

14 KB

Status: checked
Completed: 130 times
Size: 1.32 GB
 

trackerocc.site (24-окт-18)
Similar torrent
Forum Topic Author Size
Квесты , я ищу , Поиск предметов Hidden Object Royal Trouble 2- Honeymoon Havoc / Королевские неприятности 2: Безумный медовый месяц [RUS / ENG] (2015) trackerocc.site 426 MB
Саундтреки к фильмам (Score) Безумный Макс: Дорога Ярости / Mad Max: Fury Road (by Tom Holkenborg aka Junkie XL) - 2015, MP3, 320 kbps trackerocc.site 163 MB
Боевики Безумный Макс: Дорога ярости / Mad Max: Fury Road (2015) HDRip trackerocc.site 1.46 GB

_________________
[Profile] [PM]
Display posts from previous:    
Reply to topic

The time now is: Today 04:23

All times are GMT + 4 Hours



You cannot post new topics in this forum
You cannot reply to topics in this forum
You cannot edit your posts in this forum
You cannot delete your posts in this forum
You cannot vote in polls in this forum
You cannot attach files in this forum
You can download files in this forum